Sanju 2018 Hindi 720p Pre DVDRip x264 AAC { TaRa }.mkv

seeders: 1018
leechers: 71
updated:
Added by SkTaRa in TV
Torrent verified.

Sanju 2018 Hindi 720p Pre DVDRip x264 AAC { TaRa }.mkv (Size: 1.37 GiB (1469333292 Bytes))

Description

===================================================================
General
Complete name               : Sanju 2018 Hindi 720p Pre DVDRip x264 AAC { TaRa }.mkv.mkv
Format                      : Matroska
Format version              : Version 4 / Version 2
File size                   : 1.37 GiB
Duration                    : 2h 28mn
Overall bit rate            : 1 317 Kbps
===================================================================
Video
ID                          : 1
Format                      : AVC
Format/Info                 : Advanced Video Codec
Format profile              : [email protected]
Format settings, CABAC      : Yes
Format settings, ReFrames   : 4 frames
Codec ID                    : V_MPEG4/ISO/AVC
Duration                    : 2h 28mn
Bit rate                    : 1 187 Kbps
Width                       : 1 280 pixels
Height                      : 544 pixels
Display aspect ratio        : 2.35:1
Frame rate mode             : Constant
Frame rate                  : 25.000 fps
Color space                 : YUV
Chroma subsampling          : 4:2:0
Bit depth                   : 8 bits
Scan type                   : Progressive
Bits/(Pixel*Frame)          : 0.068
Stream size                 : 1.23 GiB (90%)
Title                       : ......:::::: TaRa :::::::.....
Language                    : Hindi
Default                     : Yes
Forced                      : No
===================================================================
Audio
ID                          : 2
Format                      : AAC
Format/Info                 : Advanced Audio Codec
Format profile              : LC
Codec ID                    : A_AAC
Duration                    : 2h 28mn
Bit rate                    : 128 Kbps
Channel(s)                  : 2 channels
Channel positions           : Front: L R
Sampling rate               : 44.1 KHz
Frame rate                  : 43.066 fps (1024 spf)
Compression mode            : Lossy
Stream size                 : 136 MiB (10%)
Title                       : ......:::::: TaRa :::::::.....
Language                    : Hindi
Default                     : Yes
Forced                      : No
=================================================================== 
http://extraimage.net/image/slsu 
http://extraimage.net/image/slsV 
http://extraimage.net/image/slsv 
http://extraimage.net/image/slsA 
http://extraimage.net/image/slsW 
http://extraimage.net/image/slsf 
http://extraimage.net/image/sl78 
http://extraimage.net/image/sl7a 
http://extraimage.net/image/sl7w 
http://extraimage.net/image/sl72 
http://extraimage.net/image/sl7N 
http://extraimage.net/image/sl7T 
http://extraimage.net/image/sl7j 
http://extraimage.net/image/sl7n 
http://extraimage.net/image/sl7s 
http://extraimage.net/image/sl77 
http://extraimage.net/image/sl7c 
http://extraimage.net/image/sl71 
http://extraimage.net/image/sl7E 
http://extraimage.net/image/sl7O 
http://extraimage.net/image/sl7S 
http://extraimage.net/image/sl7q 
http://extraimage.net/image/sl7y

Sharing Widget


Download torrent
1.37 GiB (1469333292 Bytes)
seeders:1018
leechers:71
Sanju 2018 Hindi 720p Pre DVDRip x264 AAC { TaRa }.mkv



To share this torrent use the code below and insert it into comments, status messages, forum posts or your signature.

Torrent: Sanju 2018 Hindi 720p Pre DVDRip x264 AAC { TaRa }.mkv

Trackers

tracker name
udp://tracker.coppersurfer.tk:6969/announce
udp://9.rarbg.me:2710/announce
udp://p4p.arenabg.ch:1337/announce
udp://tracker.leechers-paradise.org:6969/announce
udp://eddie4.nl:6969/announce
udp://thetracker.org:80/announce
udp://tracker.coppersurfer.tk:6969
udp://explodie.org:6969/announce
udp://tracker.aletorrenty.pl:2710/announce
udp://9.rarbg.to:2710/announce
udp://torrent.gresille.org:80/announce
udp://tracker.opentrackr.org:1337/announce
udp://tracker.piratepublic.com:1337/announce
udp://tracker.sktorrent.net:6969/announce
udp://zer0day.ch:1337/announce
??Torrent compatible trackers list

Locations

name
KickassTorrents
Torrent hash: 587E9691F7A23B1EB2107F904584F142D6CB51AD

All Comments

audio
0/10
video
0/10
please, leave only comments related to that torrent
Sign In

sado_blue
This is not a pre-DVD release. This is a CAMRIP. Do not download this if you don't like CAMRIPs.
Report a bug Open chat